mototaxi-sophia
» » The Night Blooming Jazzmen - The Night Blooming Jazzmen

Download The Night Blooming Jazzmen - The Night Blooming Jazzmen

Download The Night Blooming Jazzmen - The Night Blooming Jazzmen
Performer: The Night Blooming Jazzmen
Title: The Night Blooming Jazzmen
Label: Mainstream Records
Country: US
Style: Jazz-Funk
Catalog #: MRL 348
Genre: Jazz
Rating: 4.5
Votes: 125
Formats: Vinyl, LP
FLAC size: 2541 mb
MP3 size: 2281 mb

Tracklist

1Calypsoul3:56
2Donte's Inferno5:11
3Signing Off1:58
4I Remember Bird5:11
5Nam M'Yoho Ren'Ge Kyo5:18
6Evil Gal Blues3:34
7Funkville U.S.A.5:01
8The Night Blooming Jazzmen6:05

Versions

CategoryArtistTitle (Format)LabelCategoryCountryYear
MRL 348The Night Blooming Jazzmen The Night Blooming Jazzmen ‎(LP, Promo)Mainstream RecordsMRL 348USUnknown
CDSOL-45230The Night Blooming Jazzmen The Night Blooming Jazzmen ‎(CD, Album, RE, RM)Solid Records CDSOL-45230Japan2017
PCD-23927The Night Blooming Jazzmen The Night Blooming Jazzmen ‎(CD, Album, RE, RM)P-Vine RecordsPCD-23927Japan2007

Video

Album

Night Blooming Jazzmen - Leonard Feather All Stars. Лента с персональными рекомендациями и музыкальными новинками, радио, подборки на любой вкус, удобное управление своей коллекцией. The Night Blooming Jazzmen is one of the busiest bands in the nation. They have a lot of fun with their audiences and each other and despite this their music is top-quality. They play well and put on a great show. For further information regarding the Night Blooming Jazzmen, please contact Chet & Eileen Jaeger, 636 Alamosa Drive, Claremont, CA 91711-2005, 909 626-1771 or email Chet & Eileen Jaeger. The Night Blooming Jazzmen. Signing Off. バージョン 5. カタログ . The Night Blooming Jazzmen feat. Blue Mitchell - Nam M'Yoho Ren'Ge Kyo 5:21. Funkville USA 5:08. リスト リストに追加する. Vinyl Freak によって xdanguyx. Night Blooming Jazzmen The Afternoon Club The Afternoon Club. Leonard Feather Retrospective. The Night Blooming Jazzmen Blooming Jazzmen. In 1971, critic Leonard Feather, who only recorded on a very infrequent basis through the decades, led two albums by a group that he called the Night Blooming Jazzmen. The two Mainstream LPs were briefly reissued on CD in the early '90s. Get Started. United States. Internet Service Terms. Cookie Warning. Listen to music from Night Blooming Jazzmen like Freedom Jazz Dance, Nam M'Yoho Ren-Ge Kyo & more. Find the latest tracks, albums, and images from Night Blooming Feather All Stars - The Night Blooming Jazzmen, The Afternoon Club - Night Blooming Jazzmen, The Night Blooming Jazzmen - Nam M'Yoho Ren'Ge Kyo, TGZ Band - Night Blooming Jazzman, Night Blooming Jazzmen - Freedom Jazz Dance и другие скачать в mp3 и слушать музыку онлайн бесплатно. Nam M'Yoho Ren'Ge Kyo - The Night Blooming Jazzmen. Night Blooming Jazzman - TGZ Band. Night Blooming Jazzmen скачать mp3 в хорошем качестве, либо слушайте песню The Afternoon Club - Night Blooming Jazzmen, Leonard Feather All Stars - The Night Blooming Jazzmen, Night Blooming Jazzmen - Freedom Jazz Dance, The Night Blooming Jazzmen - Nam M Yoho Ren Ge Kyo, The Afternoon Club - Night Blooming Jazzmen Everybody Street OST, а также рингтоны на звонок и все новые треки. The Night Blooming Jazzmen Nam M Yoho Ren Ge Kyo. The Afternoon Club Night Blooming Jazzmen Everybody Street OST. Night Blooming Jazzmen Freedom Jazz Dance. The Night Blooming Jazzmen Calypsoul. PERFORMER The Night Blooming Jazzmen INDEX 00 05:24:72FILE 02 - Funkville WAVE INDEX 01 00:00:00 TRACK 03 AUDIO TITLE Calypsoul PERFORMER The Night Blooming Jazzmen INDEX 00 05:07:58FILE 03 - WAVE INDEX 01 00:00:00 TRACK 04 AUDIO TITLE Evil Gal Blues PERFORMER The Night Blooming Jazzmen. INDEX 00 04:03:08FILE 04 - Evil Gal WAVE INDEX 01 00:00:00 TRACK 05 AUDIO TITLE Donte's Inferno PERFORMER The Night Blooming Jazzmen INDEX

mototaxi-sophia.fr
© All right reserved. 2017-2021
Contacts | Privacy Policy | DMCA
Music albums are provided for reference only